こんにちはゲストさん。会員登録(無料)して質問・回答してみよう!

締切り済みの質問

Enhanced aacPlusの着うた

携帯動画変換君でEnhanced aacPlusの着うたを作りたいのですが

T>Avisynthが利用可能です
T>Gloria.wav (Enhanced AACplus作成/NeroAac(HE-AAC & PS)【Enhanced AACplus】)
E>"C:\Internet Explorer\着うた\DATE\3GP_Converter034\cores\ffmpeg" -y -i "C:\Internet Explorer\着うた\編集後\Gloria.wav" -bitexact -vn -ac 2 -ar 44100 -f wav "C:\DOCUME~1\Owner\LOCALS~1\Temp\E435BD1C-310789E9-F261E0BF-E3D37EC1.wav"
FFmpeg version SVN-r9494, Copyright (c) 2000-2007 Fabrice Bellard, et al.
configuration: --enable-gpl --enable-pp --enable-swscaler --enable-pthreads --enable-liba52 --enable-avisynth --enable-libamr-nb --enable-libamr-wb --enable-libfaac --enable-libfaad --enable-libgsm --enable-libmp3lame --enable-libnut --enable-libogg --enable-libtheora --enable-libvorbis --enable-libx264 --enable-libxvid --cpu=i686 --enable-memalign-hack --extra-ldflags=-static
libavutil version: 49.4.1
libavcodec version: 51.40.4
libavformat version: 51.12.1
built on Jul 6 2007 14:54:47, gcc: 4.2.0
Input #0, wav, from 'C:\Internet Explorer\着うた\編集後\Gloria.wav':
Duration: 00:00:50.0, start: 0.000000, bitrate: 1411 kb/s
Stream #0.0: Audio: pcm_s16le, 44100 Hz, stereo, 1411 kb/s
Output #0, wav, to 'C:\DOCUME~1\Owner\LOCALS~1\Temp\E435BD1C-310789E9-F261E0BF-E3D37EC1.wav':
Stream #0.0: Audio: pcm_s16le, 44100 Hz, stereo, 1411 kb/s
Stream mapping:
Stream #0.0 -> #0.0
Press [q] to stop encoding

video:0kB audio:8620kB global headers:0kB muxing overhead 0.000498%
E>"C:\Internet Explorer\着うた\DATE\3GP_Converter034\cores\neroAacEnc_SSE2" -cbr 64000 -hev2 -if "C:\DOCUME~1\Owner\LOCALS~1\Temp\E435BD1C-310789E9-F261E0BF-E3D37EC1.wav" -of "C:\DOCUME~1\Owner\LOCALS~1\Temp\E435BD1C-310789E9-F261E0BF-E3D37EC1_2.3gp"

A>Dialog : 処理実行中にエラーが発生しました [Error:1]
T>Finished.

と出てしまいます。自分でも調べてみましたが、原因がわからないのでどなたか解決法を教えてください。

投稿日時 - 2008-03-21 08:58:37

QNo.3881401

すぐに回答ほしいです

このQ&Aは役に立ちましたか?

4人が「このQ&Aが役に立った」と投票しています

回答(1)

ANo.1

こんにちは

以下の参照URLのwikiは見ましたか?
「携帯動画変換君」の質問bbsは?
ちなみにお書きになったエラーの対処方法は参照のURLに書いてありましたよ。
変換できるかどうかは、保証の限りじゃないですけども。

http://mobilehackerz.jp/archive/wiki/index.php?%BC%C1%CC%E4%A4%B9%A4%EB%C1%B0%A4%CB#e7e8f2f7

投稿日時 - 2008-03-21 09:51:15

補足

見ました。
書いてあることを確認してみましたがだめでした。

投稿日時 - 2008-03-21 10:19:17

あなたにオススメの質問